Video mp4 solo se escucha audio

Publicado en 'Hardware General' por wizned, 8 Jul 2016.





  1. wizned

    wizned Miembro frecuente

    Registro:
    27 Feb 2015
    Mensajes:
    84
    Likes:
    12




    Buenas noches, estoy intentando desde hace varias horas lograr ver la imagen de un video mp4 que he descargado, pero solo se escucha el audio. Lo reproduzco con el VLC y nada, he bajado los últimos codecs con el K-Lite y nada. Me he bajado un software para analizar el archivo y me bota esto:

    Format : MPEG-4
    Format profile : Base Media
    Codec ID : isom (isom)
    File size : 1.04 GiB
    Duration : 1 h 30 min
    Overall bit rate mode : Variable
    Overall bit rate : 1 652 kb/s
    Encoded date : UTC 2013-10-27 05:50:23
    Tagged date : UTC 2013-10-27 05:50:23

    Video
    ID : 2
    Format : AVC
    Format/Info : Advanced Video Codec
    Format profile : High@L4.1
    Format settings, CABAC : Yes
    Format settings, ReFrames : 4 frames
    Codec ID : avc1
    Codec ID/Info : Advanced Video Coding
    Duration : 1 h 30 min
    Bit rate : 1 386 kb/s
    Maximum bit rate : 6 244 kb/s
    Width : 720 pixels
    Height : 480 pixels
    Display aspect ratio : 16:9
    Original display aspect ratio : 16:9
    Frame rate mode : Constant
    Frame rate : 29.970 (29970/1000) FPS
    Standard : NTSC
    Color space : YUV
    Chroma subsampling : 4:2:0
    Bit depth : 8 bits
    Scan type : Progressive
    Bits/(Pixel*Frame) : 0.134
    Stream size : 895 MiB (84%)
    Encoded date : UTC 2013-10-28 00:33:44
    Tagged date : UTC 2013-10-27 05:51:05

    Audio
    ID : 1
    Format : AAC
    Format/Info : Advanced Audio Codec
    Format profile : LC
    Codec ID : 40
    Duration : 1 h 30 min
    Bit rate mode : Variable
    Bit rate : 192 kb/s
    Maximum bit rate : 248 kb/s
    Channel(s) : 2 channels
    Channel positions : Front: L R
    Sampling rate : 48.0 kHz
    Frame rate : 46.875 FPS (1024 spf)
    Compression mode : Lossy
    Stream size : 123 MiB (12%)
    Encoded date : UTC 2013-10-27 05:50:23
    Tagged date : UTC 2013-10-27 05:51:05

    He intentado cambiarle de formato a MKV pero los programas que he bajado se cuelgan al hacer esto. ¿Alguno podría ayudarme por favor?
     


  2. macniaco

    macniaco Miembro de oro

    Registro:
    27 Set 2011
    Mensajes:
    6,796
    Likes:
    2,816
    VLC no ocupa codecs, así q el klite es x las puras.

    Bájate el MPC Home cinema, si con ese programa no lo reproduce, significa q está mal encodeado.
     
  3. OzZyBoUrn

    OzZyBoUrn Miembro de bronce

    Registro:
    30 Abr 2016
    Mensajes:
    1,077
    Likes:
    100
    Pruebaccon otros reproductores
     
  4. killer3

    killer3 Miembro maestro

    Registro:
    30 Abr 2016
    Mensajes:
    374
    Likes:
    35
    prueba convirtiendo el video en otro formato, o puede que esté dañado el archivo pero igual el VLC se "fuerza" en reproducirlo
     
  5. wizned

    wizned Miembro frecuente

    Registro:
    27 Feb 2015
    Mensajes:
    84
    Likes:
    12
    Acabo de probar con el MPC e igual, solo audio
     
  6. macniaco

    macniaco Miembro de oro

    Registro:
    27 Set 2011
    Mensajes:
    6,796
    Likes:
    2,816
    Última oportunidad, bájate el handbrake, reencodea.

    Si no funciona ya fuiste.

    Ah, no te olvides de probar en otra pc más decentona también.
     
  7. fredyac

    fredyac Miembro de plata

    Registro:
    4 May 2010
    Mensajes:
    3,721
    Likes:
    774
    Y tienes otros vídeos MP4 que si se ve?
    El vídeo problema lo bajaste de YouTube?
     
  8. wizned

    wizned Miembro frecuente

    Registro:
    27 Feb 2015
    Mensajes:
    84
    Likes:
    12
    Ya bajé el handbrake pero no sé cómo usarlo xD

    Lo bajé de rapidgator, los otros mp4 que tengo en mi pc se ven normal.
     
  9. macniaco

    macniaco Miembro de oro

    Registro:
    27 Set 2011
    Mensajes:
    6,796
    Likes:
    2,816
    Es simple, configuras los preestablecidos de tu izquierda, jalas el vídeo y a reencodear.

    Lo uso bastante para pasar vídeos al iPad o iPhone
     
  10. fredyac

    fredyac Miembro de plata

    Registro:
    4 May 2010
    Mensajes:
    3,721
    Likes:
    774
    Hay una web donde puedes subir el vídeo y luego te da la opción de convertirlo a otro formato de vídeo, busca en Google " cortar videos en línea"
     
  11. wizned

    wizned Miembro frecuente

    Registro:
    27 Feb 2015
    Mensajes:
    84
    Likes:
    12
    Bueno supuestamentel handbrake escanea el archivo ni bien lo abres no? Pues aquí no lo hace :/
     
  12. Arrow

    Arrow Miembro de bronce

    Registro:
    30 Mar 2015
    Mensajes:
    2,390
    Likes:
    431
    intenta con el total video converter, o con ffmpeg por linea de comandos...
     
  13. Lagharto

    Lagharto Miembro frecuente

    Registro:
    3 Dic 2013
    Mensajes:
    71
    Likes:
    8
    a ver pasa los links, pa bajarlo y probar
     
  14. PEPE LUCHO

    PEPE LUCHO Suspendido

    Registro:
    27 Ago 2015
    Mensajes:
    2,035
    Likes:
    444
    Volver a bsjarlos o no te queda mas que convertir a otro formato...
     
  15. Arrow

    Arrow Miembro de bronce

    Registro:
    30 Mar 2015
    Mensajes:
    2,390
    Likes:
    431
    rapidgator ahi solo he encontrado porn...
     
  16. Muleiro

    Muleiro Miembro de bronce

    Registro:
    3 Jul 2012
    Mensajes:
    1,907
    Likes:
    544
    El VLC te permite reproducir videos incompletos. Si no atraca es que está muy mal el archivo o es basura.

    Verifica si no es falso y bájatelo de nuevo.